<?xml version="1.0" standalone="no"?>
<!DOCTYPE svg PUBLIC "-//W3C//DTD SVG 1.1//EN" "http://www.w3.org/Graphics/SVG/1.1/DTD/svg11.dtd" >
<svg xmlns="http://www.w3.org/2000/svg">
<defs>
  <font id="icons" horiz-adv-x="832.3575418994415">
    <font-face font-family="icons"
      units-per-em="512" ascent="512"
      descent="0" />
    <missing-glyph horiz-adv-x="0" />
    <glyph glyph-name="abonnement"
      unicode="&#xE001;"
      horiz-adv-x="489.3815261044177" d="M468.8192771084338 511.9999999999999L-4.1124497991968 238.5220883534136L0 209.7349397590361L162.4417670682731 156.2730923694779L172.7228915662651 6.1686746987951L201.5100401606426 -2.0562248995985L287.8714859437751 115.14859437751L407.132530120482 76.0803212851405L427.6947791164659 88.4176706827309L493.4939759036145 495.5502008032128L468.8192771084338 511.9999999999999zM398.9076305220883 435.9196787148594L172.722891566265 187.1164658634538L41.1244979919678 230.29718875502L398.9076305220883 435.9196787148594zM199.4538152610442 51.4056224899598L193.285140562249 145.991967871486L254.9718875502008 125.429718875502L199.4538152610442 51.4056224899598zM396.85140562249 113.0923694779116L205.6224899598394 174.7791164658634L454.425702811245 450.3132530120481L396.85140562249 113.0923694779116z" />
    <glyph glyph-name="carriere"
      unicode="&#xE002;"
      horiz-adv-x="512" d="M286.72 0C286.72 0 286.72 0 286.72 0C271.36 0 261.12 10.24 256 20.48L204.8 204.8L20.48 256C10.24 261.12 0 271.36 0 286.72C0 302.08 5.12 312.32 20.48 317.44L471.04 512C481.28 512 496.64 512 501.76 501.76C512 496.64 517.12 481.28 512 471.04L317.4400000000001 20.48C312.32 5.1199999999999 302.0800000000001 0 286.72 0zM122.88 291.8400000000001L230.4 266.24C245.76 261.12 261.12 245.76 266.24 230.4L291.8400000000001 122.88L419.84 419.8400000000001L122.88 291.8400000000001z" />
    <glyph glyph-name="chat"
      unicode="&#xE003;"
      horiz-adv-x="832.3575418994415" d="M140.1564245810056 377.5642458100559H520.5810055865923V334.659217877095H140.1564245810057V377.5642458100559zM140.1564245810056 288.8938547486033H520.5810055865923V245.9888268156425H140.1564245810057V288.8938547486033zM140.1564245810056 200.2234636871508H357.5418994413409V157.3184357541899H140.1564245810056V200.2234636871508zM823.7765363128492 374.7039106145252H686.4804469273744V497.6983240223464L669.31843575419 512H14.3016759776536L0 497.6983240223464V14.3016759776536L14.3016759776536 0H669.31843575419L683.6201117318436 14.3016759776536V223.1061452513967L832.3575418994413 348.9608938547487L823.7765363128492 374.7039106145252zM660.7374301675978 240.268156424581L655.0167597765364 228.8268156424581V28.6033519553073H28.6033519553073V483.3966480446927H655.0167597765363V360.4022346368716L669.31843575419 346.1005586592179H783.731843575419L660.7374301675978 240.268156424581z" />
    <glyph glyph-name="chevron-bas"
      unicode="&#xE004;"
      horiz-adv-x="788.3174603174602" d="M390.0952380952381 0L0 398.2222222222222L113.7777777777778 511.9999999999999L390.0952380952381 235.6825396825397L674.5396825396825 511.9999999999999L788.3174603174602 398.2222222222222z" />
    <glyph glyph-name="chevron-droit"
      unicode="&#xE005;"
      horiz-adv-x="332.5360824742268" d="M332.5360824742268 258.639175257732L73.8969072164949 0L0 73.8969072164948L179.4639175257732 258.639175257732L0 438.1030927835052L73.8969072164949 512z" />
    <glyph glyph-name="close"
      unicode="&#xE006;"
      horiz-adv-x="511.99999999999994" d="M511.9999999999999 467.3015873015872L467.3015873015873 511.9999999999999L256 300.6984126984127L44.6984126984127 511.9999999999999L0 467.3015873015872L211.3015873015873 256L0 44.6984126984127L44.6984126984127 0L256 211.3015873015872L467.3015873015873 0L511.9999999999999 44.6984126984127L300.6984126984127 256z" />
    <glyph glyph-name="contact"
      unicode="&#xE007;"
      horiz-adv-x="705.2075471698114" d="M647.245283018868 512H57.9622641509434C24.1509433962264 512 0 487.8490566037736 0 454.0377358490566V57.9622641509434C0 24.1509433962265 24.1509433962264 1e-13 57.9622641509434 1e-13H647.2452830188679C681.0566037735848 1e-13 705.2075471698113 24.1509433962265 705.2075471698113 57.9622641509434V454.0377358490566C705.2075471698114 487.8490566037736 681.0566037735849 512 647.245283018868 512zM608.6037735849056 57.9622641509433L101.4339622641509 57.9622641509433L256 212.5283018867924L212.5283018867925 251.1698113207547L57.9622641509434 96.6037735849056L57.9622641509434 410.5660377358491L260.8301886792454 207.6981132075472C284.9811320754718 188.377358490566 318.7924528301887 173.8867924528302 352.6037735849057 173.8867924528302C386.4150943396227 173.8867924528302 420.2264150943397 188.377358490566 444.3773584905661 212.5283018867924L647.245283018868 415.3962264150944V101.4339622641509L492.6792452830189 256L449.2075471698114 212.5283018867924L608.6037735849056 57.9622641509433zM96.6037735849057 454.0377358490566L603.7735849056604 454.0377358490566L405.7358490566038 251.1698113207547C376.7547169811321 222.188679245283 328.4528301886793 222.188679245283 299.4716981132076 251.1698113207547L96.6037735849057 454.0377358490566zM647.245283018868 454.0377358490566V425.0566037735849L618.2641509433963 454.0377358490566L647.245283018868 454.0377358490566zM86.9433962264151 454.0377358490566L57.9622641509434 425.0566037735849L57.9622641509434 454.0377358490566L86.9433962264151 454.0377358490566zM57.9622641509434 57.9622641509433L57.9622641509434 86.943396226415L86.9433962264151 57.9622641509433L57.9622641509434 57.9622641509433zM647.245283018868 57.9622641509433L618.2641509433963 57.9622641509433L647.245283018868 86.943396226415L647.245283018868 57.9622641509433L647.245283018868 57.9622641509433z" />
    <glyph glyph-name="danger"
      unicode="&#xE008;"
      horiz-adv-x="512" d="M256 0C114.688 0 0 114.6880000000001 0 256S114.688 512 256 512S512 397.312 512 256S397.312 0 256 0zM256 486.4C129.024 486.4 25.6 382.976 25.6 256S129.024 25.6 256 25.6S486.4 129.024 486.4 256S382.976 486.4 256 486.4zM243.2 144.384A12.8 12.8 0 0 1 268.8 144.384A12.8 12.8 0 0 1 243.2 144.384M256 196.608C248.832 196.608 243.2 202.24 243.2 209.408V380.416C243.2 387.584 248.832 393.216 256 393.216S268.8 387.584 268.8 380.416V209.408C268.8 202.24 263.168 196.608 256 196.608z" />
    <glyph glyph-name="download"
      unicode="&#xE009;"
      horiz-adv-x="381.072765072765" d="M190.5363825363825 511.9999999999999C178.8274428274428 511.9999999999999 169.2474012474012 502.4199584199584 169.2474012474012 490.7110187110187V160.7318087318087L36.1912681912682 293.7879417879418C27.6756756756757 302.3035343035343 14.9022869022869 302.3035343035343 6.3866943866944 293.7879417879418C-2.1288981288981 285.2723492723493 -2.1288981288981 272.4989604989605 6.3866943866944 263.983367983368L6.3866943866944 263.983367983368L175.6340956340956 94.7359667359667C176.6985446985447 93.6715176715176 177.7629937629938 92.6070686070685 178.8274428274428 91.5426195426196H179.8918918918919L183.0852390852391 90.4781704781705H184.1496881496882C185.2141372141373 90.4781704781705 186.2785862785863 89.4137214137214 187.3430353430354 89.4137214137214C188.4074844074845 89.4137214137214 190.5363825363826 89.4137214137214 191.6008316008316 89.4137214137214C192.6652806652807 89.4137214137214 194.7941787941788 89.4137214137214 195.8586278586279 89.4137214137214C196.9230769230769 89.4137214137214 197.987525987526 89.4137214137214 199.0519750519751 90.4781704781705H200.1164241164241L203.3097713097714 91.5426195426196H202.2453222453222L205.4386694386694 94.7359667359667L374.6860706860707 263.9833679833679C383.2016632016632 272.4989604989604 383.2016632016632 285.2723492723492 374.6860706860707 293.7879417879417C366.1704781704782 302.3035343035342 353.3970893970894 302.3035343035342 344.8814968814969 293.7879417879417L211.8253638253638 160.7318087318087V490.7110187110187C211.8253638253638 502.4199584199584 202.2453222453222 511.9999999999999 190.5363825363825 511.9999999999999zM21.2889812889813 0H359.7837837837837C371.4927234927235 0 381.072765072765 9.5800415800416 381.072765072765 21.2889812889813S371.4927234927235 42.5779625779626 359.7837837837837 42.5779625779626H21.2889812889813C9.5800415800416 42.5779625779626 0 32.997920997921 0 21.2889812889813S9.5800415800416 0 21.2889812889813 0z" />
    <glyph glyph-name="enveloppe"
      unicode="&#xE00A;"
      horiz-adv-x="720.3720930232557" d="M699.5348837209302 512H20.8372093023256L0 488.1860465116279V20.8372093023256L23.8139534883721 -2.9767441860465H699.5348837209302L723.3488372093024 20.8372093023256V488.1860465116279L699.5348837209302 512zM610.2325581395348 467.3488372093023L363.1627906976744 282.7906976744186L113.1162790697674 467.3488372093023H610.2325581395348zM44.6511627906977 44.6511627906977V461.3953488372093L348.2790697674419 238.139534883721H375.0697674418605L678.6976744186046 461.3953488372093V44.6511627906977H44.6511627906977z" />
    <glyph glyph-name="epargne"
      unicode="&#xE00B;"
      horiz-adv-x="529.0099667774086" d="M498.3920265780731 261.9534883720931L466.0730897009967 263.6544850498339L440.5581395348837 302.7774086378737L483.0830564784053 382.7242524916943L471.1760797342192 401.4352159468438C421.8471760797343 401.4352159468438 384.4252491694352 392.9302325581395 358.9102990033222 375.9202657807309C362.312292358804 386.1262458471761 364.0132890365449 398.0332225913621 364.0132890365449 408.2392026578073C364.0132890365449 464.3720930232558 318.0863787375415 511.9999999999999 260.2524916943522 511.9999999999999S159.8936877076412 466.0730897009966 159.8936877076412 408.2392026578073C159.8936877076412 392.9302325581395 163.2956810631229 375.9202657807309 170.0996677740864 360.6112956810631C112.265780730897 333.3953488372093 69.7408637873754 273.8604651162791 68.0398671096345 214.3255813953488C68.0398671096345 210.9235880398671 68.0398671096345 209.2225913621262 68.0398671096345 205.8205980066445C59.5348837209302 205.8205980066445 51.0299003322259 207.5215946843854 45.9269102990033 210.9235880398671C30.6179401993356 221.1295681063123 27.2159468438538 241.5415282392027 27.2159468438538 243.2425249169435L25.514950166113 256.8504983388704L0 253.4485049833887L1.7009966777409 239.8405315614618C1.7009966777409 238.1395348837209 6.8039867109635 207.5215946843854 30.6179401993355 190.5116279069768C40.8239202657807 183.7076411960133 51.0299003322259 180.3056478405316 64.6378737541528 180.3056478405316C66.3388704318937 180.3056478405316 69.7408637873754 180.3056478405316 71.4418604651163 180.3056478405316C79.9468438538206 141.1827242524917 102.0598006644518 108.8637873754153 110.5647840531561 98.6578073089701V11.9069767441861L124.172757475083 -1.7009966777409H187.109634551495L200.7176079734219 11.9069767441861V47.6279069767442C256.8504983388704 25.514950166113 318.0863787375415 35.7209302325582 347.0033222591362 44.2259136212625V15.3089700996679L360.6112956810631 1.7009966777409H416.7441860465116L430.3521594684385 15.3089700996679V79.9468438538207L517.1029900332225 136.0797342192692C525.6079734219268 142.8837209302327 532.4119601328903 153.0897009966778 532.4119601328903 163.295681063123V229.6345514950167C529.0099667774086 246.6445182724252 515.4019933554816 261.9534883720931 498.3920265780731 261.9534883720931zM261.953488372093 486.485049833887C304.4784053156146 486.485049833887 340.1993355481727 452.4651162790697 340.1993355481727 408.2392026578073C340.1993355481727 394.6312292358804 336.797342192691 381.0232558139535 329.9933554817275 369.1162790697674L329.9933554817275 369.1162790697674H195.6146179401993C188.8106312292358 381.0232558139535 185.4086378737541 394.6312292358804 185.4086378737541 408.2392026578073C185.4086378737542 452.4651162790697 219.4285714285714 486.485049833887 261.953488372093 486.485049833887zM503.4950166112956 163.2956810631229C503.4950166112956 161.5946843853821 501.7940199335548 158.1926910299003 500.0930232558139 158.1926910299003L406.5382059800665 98.6578073089701L401.4352159468438 86.7508305647841V27.2159468438538H370.8172757475083V61.2358803986711L353.8073089700997 73.1428571428571C352.1063122923587 73.1428571428571 260.2524916943522 39.1229235880398 192.2126245847176 78.2458471760797L173.5016611295681 66.3388704318937V23.8139534883721H136.0797342192691V103.7607973421927L132.6777408637874 112.265780730897C132.6777408637874 112.265780730897 91.8538205980066 163.2956810631229 93.5548172757475 214.3255813953488C95.2558139534884 268.7574750830564 139.4817275747508 324.890365448505 195.6146179401993 345.3023255813953H331.6943521594684C323.1893687707641 324.890365448505 328.2923588039867 306.1794019933555 328.2923588039867 306.1794019933555L331.6943521594684 294.2724252491694L355.5083056478405 301.0764119601329L352.1063122923587 312.9833887043189C352.1063122923587 312.9833887043189 348.7043189368771 328.2923588039867 358.9102990033222 343.6013289036545C369.1162790697674 357.2093023255814 392.9302325581395 372.5182724252491 449.063122923588 375.9202657807309L413.3421926910298 307.8803986710963L413.3421926910298 294.2724252491694L447.3621262458471 243.2425249169435L457.5681063122923 238.1395348837209L496.6910299003321 236.43853820598C500.0930232558139 236.43853820598 503.4950166112956 233.0365448504983 503.4950166112956 229.6345514950166V163.2956810631229zM369.1162790697674 241.5415282392027A20.4119601328904 20.4119601328904 0 0 1 409.9401993355481 241.5415282392027A20.4119601328904 20.4119601328904 0 0 1 369.1162790697674 241.5415282392027" />
    <glyph glyph-name="externe"
      unicode="&#xE00C;"
      horiz-adv-x="506.82828282828285" d="M411.1515151515152 0L20.6868686868687 0L0 18.10101010101L0 408.5656565656566L20.6868686868687 429.2525252525253L266.3434343434344 429.2525252525253L266.3434343434344 390.4646464646465L38.7878787878788 390.4646464646465L38.7878787878788 38.7878787878788L390.4646464646464 38.7878787878788L390.4646464646464 261.1717171717172L429.2525252525253 261.1717171717172L429.2525252525253 18.10101010101zM411.1515151515152 266.3434343434344M488.7272727272727 512L318.0606060606061 512L318.0606060606061 473.2121212121212L442.1818181818182 473.2121212121212L217.2121212121212 250.8282828282829L245.6565656565657 222.3838383838384L468.040404040404 444.7676767676768L468.040404040404 323.2323232323232L506.8282828282829 323.2323232323232L506.8282828282829 491.3131313131313z" />
    <glyph glyph-name="facebook"
      unicode="&#xE00D;"
      horiz-adv-x="236" d="M51.061 408.179C51.061 395.4220000000001 51.061 338.483 51.061 338.483H0V253.257H51.061V0.005H155.95V253.257H226.338C226.338 253.257 232.93 294.12 236.119 338.803C226.957 338.803 156.344 338.803 156.344 338.803S156.344 388.385 156.344 397.075C156.344 405.782 167.779 417.499 179.084 417.499C190.367 417.499 214.182 417.499 236.231 417.499C236.231 429.103 236.231 469.196 236.231 506.223C206.791 506.223 173.302 506.223 158.531 506.223C48.467 506.223 51.06 420.918 51.06 408.179z" />
    <glyph glyph-name="fleche-bas"
      unicode="&#xE00E;"
      horiz-adv-x="339.2" d="M339.2 169.6L316.8 192L179.2 54.4L179.2 512L147.2 512L147.2 67.2L22.4 192L0 169.6L169.6 0z" />
    <glyph glyph-name="fleche-droite"
      unicode="&#xE00F;"
      horiz-adv-x="772.8301886792453" d="M516.8301886792453 512L483.0188679245283 478.188679245283L690.7169811320756 270.4905660377359L0 270.4905660377359L0 222.188679245283L671.3962264150944 222.188679245283L483.0188679245283 33.8113207547169L516.8301886792453 0L772.8301886792453 256z" />
    <glyph glyph-name="fleche-gauche"
      unicode="&#xE010;"
      horiz-adv-x="772.8301886792453" d="M256 0L289.8113207547171 33.8113207547169L82.1132075471698 241.5094339622642L772.8301886792453 241.5094339622642L772.8301886792453 289.811320754717L101.433962264151 289.811320754717L289.8113207547171 478.188679245283L256 512L0 256z" />
    <glyph glyph-name="fleche-haut"
      unicode="&#xE011;"
      horiz-adv-x="339.2" d="M0 342.4L22.4 320L160 457.6L160 0L192 0L192 444.8L316.8 320L339.2 342.4L169.6 512z" />
    <glyph glyph-name="fleche-slider"
      unicode="&#xE012;"
      horiz-adv-x="279.27272727272725" d="M22.8294372294372 1.5515151515152L0.6649350649351 23.7160173160173L231.1757575757576 256.4432900432901L0.6649350649351 489.1705627705628L22.8294372294372 511.3350649350649L279.9376623376623 256.4432900432901z" />
    <glyph glyph-name="fleche"
      unicode="&#xE013;"
      horiz-adv-x="292.8160535117057" d="M37.0044147157191 0.6678260869565L-0.6678260869565 36.6276923076923L220.2284949832776 255.8116387959866L-0.6678260869565 474.9955852842809L37.0044147157191 512.6678260869564L292.1482274247492 255.8116387959866z" />
    <glyph glyph-name="fonds"
      unicode="&#xE014;"
      horiz-adv-x="460.40310077519376" d="M375.0697674418605 319.5038759689923C347.2868217054264 353.2403100775195 317.5193798449612 377.0542635658915 301.6434108527132 388.9612403100776L349.2713178294573 476.2790697674419L343.3178294573643 500.093023255814C335.3798449612403 508.031007751938 323.4728682170543 512 311.5658914728682 512C297.6744186046512 512 283.7829457364341 506.046511627907 269.891472868217 500.0930232558139C256 494.139534883721 240.124031007752 488.1860465116279 228.2170542635659 492.1550387596899C202.4186046511628 502.0775193798449 180.5891472868217 508.031007751938 162.7286821705426 508.031007751938C142.8837209302326 508.031007751938 125.0232558139535 502.0775193798449 109.1472868217054 486.2015503875969L105.1782945736434 464.3720930232558L154.7906976744186 388.9612403100776C136.9302325581396 375.0697674418605 111.1317829457364 351.2558139534884 85.3333333333333 319.5038759689923C27.7829457364341 252.031007751938 0 176.6201550387597 0 99.2248062015504C0 45.6434108527132 43.6589147286822 0 99.2248062015504 0H363.1627906976745C388.9612403100776 0 414.7596899224807 9.9224806201551 432.6201550387597 29.7674418604651C450.4806201550388 47.6279069767442 460.4031007751938 73.4263565891473 460.4031007751938 99.2248062015504C460.4031007751938 176.6201550387597 432.6201550387597 252.031007751938 375.0697674418605 319.5038759689923zM216.3100775193799 460.4031007751938C224.2480620155039 458.4186046511628 230.2015503875969 456.4341085271318 238.139534883721 456.4341085271318C256 456.4341085271318 271.8759689922481 462.3875968992248 283.7829457364341 468.3410852713178C291.7209302325582 472.3100775193798 301.6434108527132 476.2790697674419 307.5968992248062 476.2790697674419L267.9069767441861 400.8682170542636H190.5116279069768L144.8682170542636 470.3255813953488C162.7286821705426 478.2635658914729 184.5581395348837 472.3100775193798 216.3100775193799 460.4031007751938zM406.8217054263566 53.5813953488372C394.9147286821705 41.6744186046511 379.0387596899226 35.7209302325581 363.1627906976745 35.7209302325581H99.2248062015504C65.4883720930233 35.7209302325581 35.7209302325581 63.5038759689923 35.7209302325581 99.2248062015504C35.7209302325581 168.6821705426357 61.5193798449612 236.15503875969 113.1162790697674 297.6744186046511C140.8992248062016 329.4263565891473 166.6976744186047 353.2403100775194 184.5581395348837 365.1472868217054H277.8294573643411C289.7364341085272 357.2093023255814 319.5038759689923 333.3953488372094 349.2713178294574 297.6744186046511C400.8682170542636 236.15503875969 426.6666666666667 168.6821705426357 426.6666666666667 99.2248062015504C424.6821705426356 81.3643410852714 418.7286821705427 65.4883720930233 406.8217054263566 53.5813953488372zM182.5736434108527 194.4806201550388C154.7906976744186 194.4806201550388 130.9767441860465 218.2945736434109 130.9767441860465 246.077519379845C130.9767441860465 273.8604651162791 154.7906976744186 297.6744186046511 182.5736434108527 297.6744186046511S234.1705426356589 273.8604651162791 234.1705426356589 246.077519379845C232.1860465116279 218.2945736434109 210.3565891472868 194.4806201550388 182.5736434108527 194.4806201550388zM182.5736434108527 261.9534883720931C174.6356589147287 261.9534883720931 166.6976744186046 256 166.6976744186046 246.077519379845S172.6511627906977 230.2015503875969 182.5736434108527 230.2015503875969S198.4496124031008 236.15503875969 198.4496124031008 246.077519379845S190.5116279069768 261.9534883720931 182.5736434108527 261.9534883720931zM285.7674418604651 71.4418604651163C257.984496124031 71.4418604651163 234.170542635659 95.2558139534884 234.170542635659 123.0387596899225C234.170542635659 150.8217054263566 257.984496124031 174.6356589147288 285.7674418604651 174.6356589147288S337.3643410852713 150.8217054263567 337.3643410852713 123.0387596899225C337.3643410852713 93.2713178294574 313.5503875968992 71.4418604651163 285.7674418604651 71.4418604651163zM285.7674418604651 136.9302325581396C277.8294573643411 136.9302325581396 269.891472868217 130.9767441860465 269.891472868217 121.0542635658915S275.8449612403101 105.1782945736434 285.7674418604651 105.1782945736434S301.6434108527132 111.1317829457365 301.6434108527132 121.0542635658915S293.7054263565892 136.9302325581396 285.7674418604651 136.9302325581396zM188.5271317829457 91.2868217054264L164.7131782945737 103.1937984496124L271.8759689922481 273.8604651162791L293.7054263565892 261.9534883720931z" />
    <glyph glyph-name="histogramme"
      unicode="&#xE015;"
      horiz-adv-x="782.5906735751295" d="M703.0051813471503 39.7927461139897V400.580310880829L681.782383419689 421.8031088082902H565.0569948186527L543.8341968911916 400.580310880829V39.7927461139897H493.4300518134714V286.5077720207254L477.5129533678756 305.0777202072539H360.7875647668394L339.5647668393782 283.8549222797928V39.7927461139897H291.8134715025907V185.6994818652851L270.5906735751295 206.9222797927462H156.5181347150259L135.2953367875648 185.6994818652851V39.7927461139897H39.7927461139896V512H0V21.2227979274612L21.2227979274611 0H785.2435233160621V39.7927461139897H703.0051813471503zM586.279792746114 382.0103626943005H663.2124352331606V42.4455958549223H586.279792746114V382.0103626943005zM382.0103626943005 265.2849740932643H458.9430051813471V39.7927461139897H382.0103626943005V265.2849740932643zM175.0880829015544 167.1295336787565H252.020725388601V39.7927461139897H175.0880829015544V167.1295336787565z" />
    <glyph glyph-name="informations-reglementaires"
      unicode="&#xE016;"
      horiz-adv-x="404.5874125874126" d="M343.7202797202797 511.9999999999999L343.7202797202797 511.9999999999999H143.2167832167832C143.2167832167832 511.9999999999999 139.6363636363636 511.9999999999999 136.055944055944 511.9999999999999C136.055944055944 511.9999999999999 132.4755244755245 511.9999999999999 132.4755244755245 508.4195804195804C132.4755244755245 508.4195804195804 128.8951048951049 508.4195804195804 128.8951048951049 504.8391608391608L128.8951048951049 504.8391608391608C128.8951048951049 504.8391608391608 128.8951048951049 504.8391608391608 128.8951048951049 504.8391608391608L7.1608391608392 386.6853146853147C3.5804195804196 383.1048951048951 0 375.9440559440559 0 372.3636363636363V60.8671328671329C0 25.0629370629371 28.6433566433566 1e-13 60.8671328671329 1e-13H343.7202797202797H343.7202797202797C361.6223776223776 1e-13 375.9440559440559 7.1608391608392 386.6853146853146 17.9020979020979C397.4265734265734 28.6433566433567 404.5874125874125 46.5454545454546 404.5874125874125 60.8671328671329V451.1328671328671C404.5874125874126 483.3566433566433 379.5244755244755 511.9999999999999 343.7202797202797 511.9999999999999zM121.7342657342657 440.3916083916083V393.8461538461538H75.1888111888112L121.7342657342657 440.3916083916083zM361.6223776223776 60.8671328671329C361.6223776223776 57.2867132867133 358.041958041958 50.1258741258741 354.4615384615385 46.5454545454546C350.8811188811189 42.965034965035 347.3006993006993 39.3846153846154 340.1398601398601 39.3846153846154H60.8671328671329C50.1258741258741 39.3846153846154 42.965034965035 46.5454545454546 42.965034965035 57.2867132867133V350.8811188811188H143.2167832167832C153.958041958042 350.8811188811188 164.6993006993007 361.6223776223776 164.6993006993007 372.3636363636363V469.034965034965H343.7202797202797C343.7202797202797 469.034965034965 343.7202797202797 469.034965034965 343.7202797202797 469.034965034965C354.4615384615385 469.034965034965 361.6223776223776 461.8741258741258 361.6223776223776 451.1328671328671V60.8671328671329zM128.8951048951049 239.8881118881119H272.1118881118881C286.4335664335664 239.8881118881119 293.5944055944056 250.6293706293706 293.5944055944056 261.3706293706294S286.4335664335664 282.8531468531468 272.1118881118881 282.8531468531468H128.8951048951049C118.1538461538461 282.8531468531468 107.4125874125874 275.6923076923077 107.4125874125874 261.3706293706294S118.1538461538461 239.8881118881119 128.8951048951049 239.8881118881119zM275.6923076923077 200.5034965034965H132.4755244755245C118.1538461538461 200.5034965034965 110.993006993007 189.7622377622378 110.993006993007 179.020979020979S121.7342657342657 157.5384615384615 132.4755244755245 157.5384615384615H275.6923076923077C286.4335664335664 157.5384615384615 297.1748251748252 168.2797202797203 297.1748251748252 179.020979020979S286.4335664335664 200.5034965034965 275.6923076923077 200.5034965034965z" />
    <glyph glyph-name="instagram"
      unicode="&#xE017;"
      horiz-adv-x="515" d="M477.502 505.777H39.283C22.882 505.777 9.585 492.48 9.585 476.079V37.86C9.585 21.459 22.882 8.162 39.283 8.162H477.502C493.903 8.162 507.2 21.46 507.2 37.86V476.079C507.2 492.48 493.902 505.777 477.502 505.777zM194.881 314.593C210.428 332.206 233.101 343.396 258.392 343.396C283.657 343.396 306.33 332.206 321.894 314.593C335.0830000000001 299.64 343.154 280.086 343.154 258.635C343.154 211.901 305.126 173.873 258.392 173.873C211.649 173.873 173.622 211.901 173.622 258.635C173.622 280.079 181.693 299.64 194.882 314.594zM454.812 60.55H61.963V314.593H133.302C125.625 297.4740000000001 121.242 278.573 121.242 258.634C121.242 183.005 182.771 121.4930000000001 258.391 121.4930000000001S395.5320000000001 183.0050000000001 395.5320000000001 258.634C395.5320000000001 278.572 391.1500000000001 297.4810000000001 383.4720000000001 314.5920000000001H454.811V60.549zM454.812 398.243C454.812 385.045 444.115 374.349 430.9100000000001 374.349H399.6900000000001C386.4760000000001 374.349 375.7790000000001 385.046 375.7790000000001 398.243V429.497C375.7790000000001 442.695 386.4760000000001 453.391 399.6900000000001 453.391H430.9100000000001C444.1160000000001 453.391 454.8120000000001 442.694 454.8120000000001 429.497V398.243z" />
    <glyph glyph-name="interne"
      unicode="&#xE018;"
      horiz-adv-x="527.6734693877551" d="M117.5510204081633 0C86.204081632653 0 57.469387755102 10.4489795918367 33.9591836734694 33.9591836734694C-13.0612244897959 80.9795918367348 -13.0612244897959 154.1224489795919 33.9591836734694 201.1428571428572L146.2857142857143 313.4693877551021C169.7959183673469 336.9795918367347 198.5306122448979 347.4285714285715 229.8775510204082 347.4285714285715C261.2244897959183 347.4285714285715 289.9591836734694 334.3673469387756 313.469387755102 313.4693877551021C326.5306122448979 300.4081632653062 336.9795918367347 282.1224489795918 342.204081632653 263.8367346938776L305.6326530612245 253.3877551020409C303.0204081632653 266.4489795918368 295.1836734693877 276.8979591836735 287.3469387755102 287.3469387755103C258.6122448979592 316.0816326530612 206.3673469387755 316.0816326530612 175.0204081632653 287.3469387755103L62.6938775510204 175.0204081632654C31.3469387755102 143.6734693877552 31.3469387755102 94.0408163265307 62.6938775510204 62.6938775510205C94.0408163265306 31.3469387755103 143.6734693877551 31.3469387755103 175.0204081632653 62.6938775510205L250.7755102040816 138.4489795918368L279.5102040816326 109.7142857142858L203.7551020408163 33.9591836734695C177.6326530612245 13.061224489796 148.8979591836735 0 117.5510204081633 0zM297.795918367347 164.5714285714286C266.4489795918368 164.5714285714286 237.7142857142857 177.6326530612245 214.204081632653 198.530612244898C201.1428571428571 211.5918367346939 190.6938775510204 229.8775510204082 185.469387755102 248.1632653061225L222.0408163265306 258.6122448979593C224.6530612244898 245.5510204081633 232.4897959183673 235.1020408163266 240.3265306122449 224.6530612244898C256 208.9795918367348 274.2857142857143 201.1428571428572 295.1836734693877 201.1428571428572C295.1836734693877 201.1428571428572 295.1836734693877 201.1428571428572 295.1836734693877 201.1428571428572C316.0816326530612 201.1428571428572 336.9795918367347 208.9795918367348 350.0408163265306 224.6530612244898L462.3673469387754 336.9795918367347C478.0408163265306 352.6530612244898 485.8775510204081 370.9387755102041 485.8775510204081 391.8367346938776S478.0408163265305 433.6326530612245 462.3673469387754 446.6938775510204C431.0204081632653 478.0408163265306 381.3877551020408 478.0408163265306 350.0408163265306 446.6938775510204L271.673469387755 368.326530612245L248.1632653061224 399.6734693877551L326.5306122448979 478.0408163265306C373.5510204081633 525.0612244897959 446.6938775510204 525.0612244897959 493.7142857142856 478.0408163265306C517.2244897959182 454.530612244898 527.6734693877551 425.795918367347 527.6734693877551 394.4489795918368C527.6734693877551 363.1020408163265 514.6122448979592 334.3673469387756 493.7142857142856 310.8571428571429L381.3877551020408 198.530612244898C357.8775510204081 175.0204081632654 329.1428571428571 164.5714285714286 297.795918367347 164.5714285714286C297.795918367347 164.5714285714286 297.795918367347 164.5714285714286 297.795918367347 164.5714285714286z" />
    <glyph glyph-name="isr"
      unicode="&#xE019;"
      horiz-adv-x="312.88888888888886" d="M139.3777777777778 170.6666666666667L113.7777777777778 146.0148148148148V107.1407407407407H146.0148148148148L156.4444444444444 96.7111111111111V36.0296296296297H187.7333333333333L219.9703703703704 68.2666666666667V130.8444444444444L181.0962962962963 170.6666666666667H139.3777777777778zM206.6962962962963 74.9037037037037L182.0444444444444 50.2518518518518H170.6666666666667V103.3481481481481L152.6518518518519 121.362962962963H128V139.3777777777777L145.0666666666667 156.4444444444444H174.4592592592593L205.7481481481482 125.1555555555555V74.9037037037037zM161.1851851851852 312.8888888888889C168.7703703703704 359.3481481481482 194.3703703703704 402.962962962963 240.8296296296296 445.6296296296296L231.3481481481481 456.0592592592592C202.9037037037037 429.5111111111111 181.0962962962963 402.962962962963 166.874074074074 375.4666666666667C158.3407407407407 396.325925925926 163.0814814814815 423.8222222222222 172.562962962963 437.0962962962963C188.6814814814815 459.8518518518518 206.6962962962963 466.4888888888889 226.6074074074074 474.0740740740741C237.037037037037 477.8666666666667 248.4148148148148 482.6074074074074 259.7925925925926 489.2444444444445C270.2222222222223 453.2148148148148 264.5333333333333 411.4962962962963 245.5703703703704 385.8962962962964C232.2962962962963 368.8296296296296 209.5407407407407 360.2962962962963 187.7333333333333 363.1407407407408L185.837037037037 348.9185185185185C189.6296296296296 347.9703703703704 193.4222222222222 347.9703703703704 197.2148148148148 347.9703703703704C219.9703703703703 347.9703703703704 242.7259259259259 358.4 256.9481481481481 376.4148148148148C279.7037037037037 407.7037037037037 285.3925925925926 460.8 270.2222222222222 502.5185185185185L266.4296296296296 511.9999999999999L258.8444444444444 506.3111111111111C246.5185185185185 496.8296296296296 234.1925925925926 492.0888888888888 220.9185185185185 487.3481481481481C201.0074074074074 478.8148148148148 180.1481481481482 471.2296296296296 161.1851851851852 444.6814814814815C147.9111111111111 425.7185185185185 141.2740740740741 385.8962962962964 159.2888888888889 359.3481481481482C152.6518518518519 344.1777777777778 148.8592592592593 329.0074074074074 146.0148148148148 312.8888888888889C64.4740740740741 307.2 0 239.8814814814815 0 156.4444444444445C0 70.162962962963 70.162962962963 0 156.4444444444444 0C242.725925925926 0 312.8888888888889 70.162962962963 312.8888888888889 156.4444444444445C312.8888888888889 241.7777777777778 245.5703703703704 310.9925925925926 161.1851851851852 312.8888888888889zM298.6666666666667 156.4444444444445C298.6666666666667 156.4444444444445 298.6666666666667 156.4444444444445 298.6666666666667 156.4444444444445L274.0148148148148 156.4444444444445L259.7925925925926 178.2518518518518H238.9333333333333L231.3481481481481 170.6666666666667H216.1777777777778L180.1481481481481 206.6962962962963H134.637037037037V214.2814814814815C134.637037037037 225.6592592592593 144.1185185185185 235.1407407407408 155.4962962962962 235.1407407407408H172.5629629629629L186.7851851851851 249.362962962963H222.8148148148148L242.7259259259259 269.2740740740741C276.8592592592593 243.6740740740741 298.6666666666667 202.9037037037037 298.6666666666667 156.4444444444445zM42.6666666666667 227.5555555555556C46.4592592592593 227.5555555555556 50.2518518518518 225.6592592592593 53.0962962962963 223.762962962963C54.9925925925926 220.9185185185186 56.8888888888889 217.1259259259259 56.8888888888889 213.3333333333334V205.7481481481482H46.4592592592593L28.4444444444444 188.6814814814815V170.6666666666667H15.1703703703704C17.0666666666667 192.4740740740741 24.6518518518519 213.3333333333334 36.0296296296296 231.3481481481482V227.5555555555556H42.6666666666667zM56.8888888888889 67.3185185185186L51.2 61.6296296296297C35.0814814814815 79.6444444444445 23.7037037037037 100.5037037037038 18.0148148148148 124.2074074074075L18.962962962963 123.2592592592593L31.2888888888889 135.5851851851852H59.7333333333333L71.1111111111111 125.1555555555555V116.6222222222222L56.8888888888889 103.3481481481481V67.3185185185186zM156.4444444444444 14.2222222222222C119.4666666666667 14.2222222222222 86.2814814814815 28.4444444444445 61.6296296296296 51.2L71.1111111111111 60.6814814814815V96.7111111111111L85.3333333333333 110.9333333333334V130.8444444444445L65.4222222222222 148.8592592592593H25.6L15.1703703703704 138.4296296296297C14.2222222222222 144.1185185185186 14.2222222222222 149.8074074074075 14.2222222222222 155.4962962962963H42.6666666666667V181.0962962962963L53.0962962962963 191.525925925926H71.1111111111111V212.3851851851852C71.1111111111111 219.9703703703704 68.2666666666667 227.5555555555556 62.5777777777778 232.2962962962964C56.8888888888889 237.9851851851853 50.2518518518518 240.8296296296297 42.6666666666667 240.8296296296297C66.3703703703704 272.1185185185186 103.3481481481481 293.9259259259259 145.0666666666667 296.7703703703704C145.0666666666667 294.8740740740742 145.0666666666667 292.0296296296297 145.0666666666667 290.1333333333334L159.2888888888889 290.1333333333334C159.2888888888889 292.9777777777779 159.2888888888889 294.8740740740742 159.2888888888889 297.7185185185186C185.8370370370371 296.7703703703704 210.4888888888889 289.1851851851853 231.3481481481481 276.8592592592594L217.1259259259259 262.6370370370371H182.0444444444444L167.8222222222222 248.4148148148149H156.4444444444444C136.5333333333333 248.4148148148149 120.4148148148148 232.2962962962964 120.4148148148148 212.3851851851853V191.525925925926H174.4592592592592L210.4888888888889 155.4962962962964H237.9851851851852L245.5703703703704 163.0814814814816H253.1555555555556L267.3777777777778 141.2740740740741H298.6666666666667C291.0814814814815 71.1111111111111 230.4 14.2222222222222 156.4444444444444 14.2222222222222zM96.7111111111111 350.8148148148149C104.2962962962963 346.0740740740741 111.8814814814815 344.1777777777778 119.4666666666667 344.1777777777778C132.7407407407407 344.1777777777778 145.0666666666667 348.9185185185186 146.0148148148148 349.8666666666667L150.7555555555555 351.762962962963L150.7555555555555 356.5037037037038C150.7555555555555 357.4518518518519 148.8592592592592 388.7407407407408 128 402.0148148148149L128 402.0148148148149C109.037037037037 414.3407407407408 70.162962962963 412.4444444444445 68.2666666666667 412.4444444444445L58.7851851851852 411.4962962962964L62.5777777777778 402.0148148148149C62.5777777777778 399.1703703703704 77.7481481481481 363.1407407407408 96.7111111111111 350.8148148148149zM119.4666666666667 390.6370370370371C129.8962962962963 384 133.6888888888889 368.8296296296296 134.637037037037 361.2444444444444C127.0518518518518 359.3481481481482 113.7777777777778 356.5037037037038 104.2962962962963 362.1925925925927C94.8148148148148 368.8296296296296 84.3851851851852 385.8962962962964 78.6962962962963 398.2222222222223C91.9703703703704 398.2222222222223 109.9851851851852 396.325925925926 119.4666666666667 390.6370370370371z" />
    <glyph glyph-name="label"
      unicode="&#xE01A;"
      horiz-adv-x="548.434456928839" d="M69.0337078651685 423.7902621722847H462.1423220973783V395.0262172284644H69.0337078651686V423.7902621722847zM69.0337078651685 350.9213483146067H258.8764044943821V322.1573033707865H69.0337078651685V350.9213483146067zM69.0337078651685 278.0524344569289H189.8426966292135V249.2883895131086H69.0337078651686V278.0524344569289zM379.685393258427 191.7602996254682C356.6741573033708 191.7602996254682 335.5805243445693 210.936329588015 335.5805243445693 235.8651685393259S354.7565543071161 279.9700374531835 379.685393258427 279.9700374531835S423.7902621722847 260.7940074906368 423.7902621722847 235.8651685393259S402.6966292134832 191.7602996254682 379.685393258427 191.7602996254682zM379.685393258427 249.2883895131086C372.0149812734083 249.2883895131086 364.3445692883896 243.5355805243446 364.3445692883896 233.9475655430712S370.0973782771536 218.6067415730337 379.685393258427 218.6067415730337S395.0262172284645 224.3595505617977 395.0262172284645 233.9475655430712S387.3558052434457 249.2883895131086 379.685393258427 249.2883895131086zM535.0112359550561 512H15.3408239700375L0 496.6591760299626V161.0786516853933L15.3408239700375 147.6554307116105H320.2397003745318V11.5056179775281L345.1685393258427 1.9176029962546L375.8501872659177 32.5992509363296L410.3670411985019 1.9176029962546L435.2958801498129 13.4232209737827V151.4906367041198C441.0486891385769 151.4906367041198 444.8838951310862 151.4906367041198 450.6367041198503 153.4082397003745V147.6554307116105H538.8464419475656L554.1872659176031 162.996254681648V496.6591760299626L535.0112359550561 512zM383.5205992509364 61.3632958801498L364.3445692883896 61.3632958801498L349.0037453183521 46.0224719101124V147.6554307116105C354.7565543071161 136.1498127340823 366.2621722846442 128.4794007490637 379.685393258427 128.4794007490637C389.2734082397004 128.4794007490637 396.9438202247191 132.314606741573 404.6142322097379 139.9850187265918V46.0224719101124L383.5205992509364 61.3632958801498zM437.2134831460675 184.0898876404494C439.1310861423222 180.2546816479401 437.2134831460675 178.3370786516853 435.2958801498127 178.3370786516853C435.2958801498127 176.4194756554306 431.4606741573034 176.4194756554306 429.5430711610487 176.4194756554306C419.9550561797753 180.25468164794 410.3670411985019 180.25468164794 402.6966292134832 176.4194756554306C393.1086142322098 172.5842696629213 387.3558052434457 164.9138576779025 383.5205992509364 157.2434456928838C381.6029962546816 153.4082397003745 379.685393258427 153.4082397003745 377.7677902621723 153.4082397003745S373.932584269663 153.4082397003745 372.0149812734083 157.2434456928838C368.1797752808989 166.8314606741572 362.4269662921348 174.501872659176 352.8389513108615 176.4194756554306C349.0037453183521 178.3370786516853 345.1685393258427 178.3370786516853 339.4157303370787 178.3370786516853C333.6629213483146 178.3370786516853 329.8277153558053 176.4194756554306 324.0749063670412 174.501872659176C320.2397003745318 172.5842696629213 318.3220973782772 174.501872659176 318.3220973782772 176.4194756554307C316.4044943820224 178.3370786516854 316.4044943820224 180.2546816479401 316.4044943820224 182.1722846441948C320.2397003745318 191.7602996254682 320.2397003745318 201.3483146067416 316.4044943820224 209.0187265917603C312.5692883895131 218.6067415730337 304.8988764044944 224.3595505617978 297.2284644194756 228.1947565543071C293.3932584269663 230.1123595505618 293.3932584269663 232.0299625468165 293.3932584269663 233.9475655430712S293.3932584269663 237.7827715355806 297.2284644194756 239.7003745318352C306.816479400749 243.5355805243446 314.4868913857677 249.2883895131087 316.4044943820224 258.8764044943821C320.2397003745318 268.4644194756555 320.2397003745318 278.0524344569289 316.4044943820224 285.7228464419476C314.4868913857677 289.558052434457 316.4044943820224 291.4756554307117 318.3220973782772 291.4756554307117C318.3220973782772 293.3932584269664 322.1573033707865 293.3932584269664 324.0749063670412 293.3932584269664C333.6629213483146 289.558052434457 343.250936329588 289.558052434457 350.9213483146067 293.3932584269664C360.5093632958801 297.2284644194757 366.2621722846442 304.8988764044945 370.0973782771535 312.5692883895132C372.0149812734083 316.4044943820225 373.9325842696629 316.4044943820225 375.8501872659176 316.4044943820225S379.685393258427 316.4044943820225 381.6029962546816 312.5692883895132C385.438202247191 302.9812734082398 391.1910112359551 295.310861423221 400.7790262172285 293.3932584269664C410.3670411985019 289.558052434457 419.9550561797753 289.558052434457 427.625468164794 293.3932584269664C431.4606741573034 295.310861423221 433.3782771535581 293.3932584269664 433.3782771535581 291.4756554307117C435.2958801498127 289.558052434457 435.2958801498127 287.6404494382023 435.2958801498127 285.7228464419476C431.4606741573034 276.1348314606742 431.4606741573034 266.5468164794009 435.2958801498127 258.8764044943821C439.1310861423221 249.2883895131087 446.8014981273409 243.5355805243446 454.4719101123596 239.7003745318352C458.3071161048689 237.7827715355806 458.3071161048689 235.8651685393259 458.3071161048689 233.9475655430712S458.3071161048689 230.1123595505619 454.4719101123596 228.1947565543071C444.8838951310862 224.3595505617978 437.2134831460675 218.6067415730337 435.2958801498127 209.0187265917603C433.3782771535581 203.2659176029963 433.3782771535581 193.6779026217228 437.2134831460675 184.0898876404494zM519.6704119850187 176.4194756554307H465.9775280898876C467.8951310861424 184.0898876404494 465.9775280898876 189.8426966292134 464.059925093633 197.5131086142322C464.059925093633 199.4307116104869 464.059925093633 201.3483146067416 464.059925093633 201.3483146067416C464.059925093633 201.3483146067416 465.9775280898876 203.2659176029963 467.8951310861423 205.1835205992509C481.3183520599251 210.936329588015 490.9063670411985 222.4419475655431 490.9063670411985 237.7827715355805S479.4007490636704 262.7116104868914 465.9775280898876 268.4644194756554C464.059925093633 268.4644194756554 464.059925093633 270.3820224719101 462.1423220973783 272.2996254681648C462.1423220973783 272.2996254681648 462.1423220973783 274.2172284644195 462.1423220973783 276.1348314606742C467.8951310861424 289.5580524344569 465.9775280898876 304.8988764044944 456.3895131086143 314.4868913857678C446.8014981273409 324.0749063670412 431.4606741573034 327.9101123595506 418.0374531835207 320.2397003745318C416.1198501872659 320.2397003745318 414.2022471910113 320.2397003745318 414.2022471910113 320.2397003745318C414.2022471910113 320.2397003745318 412.2846441947566 322.1573033707865 410.3670411985019 324.0749063670412V324.0749063670412C404.6142322097379 337.498127340824 393.1086142322099 347.0861423220973 377.7677902621724 347.0861423220973S350.9213483146069 337.498127340824 345.1685393258428 324.0749063670412C345.1685393258428 322.1573033707865 343.2509363295881 322.1573033707865 341.3333333333335 320.2397003745318C341.3333333333335 320.2397003745318 339.4157303370788 320.2397003745318 337.4981273408241 320.2397003745318C324.0749063670413 325.9925093632959 308.7340823970039 324.0749063670412 299.1460674157305 314.4868913857678C289.558052434457 304.8988764044944 285.7228464419477 289.5580524344569 293.3932584269664 276.1348314606742C293.3932584269664 274.2172284644195 293.3932584269664 272.2996254681648 293.3932584269664 272.2996254681648C293.3932584269664 272.2996254681648 291.4756554307117 270.3820224719101 289.558052434457 268.4644194756554C278.0524344569289 262.7116104868914 268.4644194756555 251.2059925093633 268.4644194756555 235.8651685393259S278.0524344569289 209.0187265917603 291.4756554307116 203.2659176029963C293.3932584269663 203.2659176029963 293.3932584269663 201.3483146067415 295.310861423221 199.4307116104869C295.310861423221 199.4307116104869 295.310861423221 197.5131086142322 295.310861423221 195.5955056179775C291.4756554307116 189.8426966292134 291.4756554307116 182.1722846441948 293.3932584269663 174.501872659176H28.7640449438202V481.3183520599251H519.6704119850187V176.4194756554307z" />
    <glyph glyph-name="linkedin"
      unicode="&#xE01B;"
      horiz-adv-x="531.3207547169811" d="M7.2452830188679 345.3584905660378H120.7547169811321V-1e-13H7.2452830188679V345.3584905660377zM400.9056603773586 352.6037735849057C340.5283018867925 352.6037735849057 313.9622641509435 318.7924528301887 297.0566037735849 294.6415094339623V294.6415094339623H297.0566037735849C297.0566037735849 294.6415094339623 297.0566037735849 294.6415094339623 297.0566037735849 294.6415094339623V342.9433962264151H183.5471698113208C185.9622641509434 311.5471698113207 183.5471698113208 -2.4150943396227 183.5471698113208 -2.4150943396227H297.0566037735849V190.7924528301887C297.0566037735849 200.4528301886792 297.0566037735849 212.5283018867924 301.8867924528302 219.7735849056603C309.1320754716982 241.5094339622641 328.4528301886793 260.8301886792453 359.8490566037737 260.8301886792453C400.9056603773586 260.8301886792453 417.8113207547171 229.4339622641509 417.8113207547171 183.5471698113207V-2.4150943396227H531.3207547169811V198.0377358490566C531.3207547169811 304.3018867924528 475.7735849056604 352.6037735849057 400.9056603773586 352.6037735849057zM65.2075471698113 512C26.5660377358491 512 0 485.4339622641509 0 451.6226415094339C0 417.811320754717 24.1509433962264 391.2452830188679 62.7924528301887 391.2452830188679H62.7924528301887C101.433962264151 391.2452830188679 128 417.811320754717 128 451.6226415094339C128 485.4339622641509 103.8490566037736 512 65.2075471698113 512z" />
    <glyph glyph-name="loupe"
      unicode="&#xE01C;"
      horiz-adv-x="562.1960784313726" d="M562.1960784313726 36.8104575163399L431.686274509804 147.2418300653595C455.1111111111111 184.0522875816994 471.843137254902 227.5555555555556 471.843137254902 277.7516339869282C471.843137254902 408.2614379084968 364.7581699346405 512.0000000000001 237.5947712418301 512.0000000000001S0 404.9150326797386 0 277.7516339869281S107.0849673202615 43.5032679738562 234.2483660130719 43.5032679738562C297.8300653594772 43.5032679738562 354.718954248366 70.2745098039216 398.2222222222223 110.4313725490196L528.7320261437909 0L562.1960784313726 36.8104575163399zM234.2483660130719 90.3529411764706C133.8562091503268 90.3529411764706 50.1960784313726 174.0130718954249 50.1960784313726 277.7516339869281S133.8562091503268 461.8039215686275 234.2483660130719 461.8039215686275S421.6470588235295 378.1437908496732 421.6470588235295 277.7516339869281S337.9869281045752 90.3529411764706 234.2483660130719 90.3529411764706z" />
    <glyph glyph-name="pdf"
      unicode="&#xE01D;"
      horiz-adv-x="405.5843137254902" d="M401.5686274509804 391.5294117647059L285.1137254901961 507.9843137254902L275.0745098039216 512H16.0627450980392L0 495.9372549019608V14.0549019607843L16.0627450980392 -2.0078431372549H391.5294117647059L407.5921568627452 14.0549019607843V381.4901960784314L401.5686274509804 391.5294117647059zM289.1294117647059 459.7960784313726L353.3803921568628 395.5450980392157H289.129411764706C289.1294117647059 395.5450980392157 289.1294117647059 459.7960784313726 289.1294117647059 459.7960784313726zM30.1176470588235 30.1176470588235V481.8823529411765H259.0117647058824V381.4901960784314L275.0745098039216 365.4274509803922H375.4666666666667V30.1176470588235H30.1176470588235zM90.3529411764706 206.8078431372549V166.6509803921569H72.2823529411765V275.0745098039216H114.4470588235294C126.4941176470588 275.0745098039216 136.5333333333334 271.0588235294118 142.556862745098 265.0352941176471S152.5960784313726 250.9803921568628 152.5960784313726 240.9411764705883S148.5803921568627 222.8705882352942 142.556862745098 216.8470588235295S126.4941176470588 208.8156862745099 112.4392156862745 208.8156862745099L90.3529411764706 206.8078431372549L90.3529411764706 206.8078431372549zM90.3529411764706 220.8627450980392H112.4392156862745C118.4627450980392 220.8627450980392 124.4862745098039 222.8705882352941 128.5019607843137 224.878431372549C132.5176470588235 228.8941176470588 134.5254901960784 232.9098039215686 134.5254901960784 238.9333333333333S132.5176470588235 248.9725490196078 128.5019607843137 252.9882352941176S120.4705882352941 259.0117647058824 114.4470588235294 259.0117647058824H90.3529411764706V220.8627450980392zM168.6588235294118 166.6509803921569V275.0745098039216H200.7843137254902C210.8235294117647 275.0745098039216 218.8549019607843 273.0666666666667 226.886274509804 269.0509803921569C234.9176470588236 265.0352941176471 240.9411764705883 259.0117647058824 244.9568627450981 250.9803921568628S250.9803921568628 234.9176470588235 250.9803921568628 224.878431372549V218.8549019607843C250.9803921568628 208.8156862745098 248.9725490196079 198.7764705882353 244.9568627450981 192.7529411764705C240.9411764705883 186.7294117647059 234.9176470588236 178.6980392156863 226.886274509804 174.6823529411765C218.8549019607843 170.6666666666667 210.8235294117647 168.6588235294117 200.7843137254902 168.6588235294117H168.6588235294118V166.6509803921569zM188.7372549019608 259.0117647058824V180.7058823529412H200.7843137254902C210.8235294117647 180.7058823529412 218.8549019607843 184.721568627451 222.8705882352941 190.7450980392157C228.8941176470589 196.7686274509804 230.9019607843138 204.8 230.9019607843138 216.8470588235294V222.8705882352942C230.9019607843138 234.9176470588236 228.8941176470589 242.9490196078432 222.8705882352941 248.9725490196079S210.8235294117647 259.0117647058824 200.7843137254902 259.0117647058824C200.7843137254902 259.0117647058824 188.7372549019608 259.0117647058824 188.7372549019608 259.0117647058824zM331.2941176470589 212.8313725490196H287.121568627451V166.6509803921569H269.0509803921569V275.0745098039216H337.3176470588235V259.0117647058824H287.121568627451V226.886274509804H331.2941176470589C331.2941176470589 226.886274509804 331.2941176470589 212.8313725490196 331.2941176470589 212.8313725490196zM138.5411764705883 106.4156862745098H267.043137254902V86.3372549019608H138.5411764705883V106.4156862745098z" />
    <glyph glyph-name="phone"
      unicode="&#xE01E;"
      horiz-adv-x="357.64705882352945" d="M306.8235294117648 512H52.7058823529412C22.5882352941177 512 0 489.4117647058824 0 461.1764705882353V52.7058823529412C0 24.4705882352941 22.5882352941177 0 52.7058823529412 0H306.8235294117648C335.0588235294118 0 359.5294117647059 22.5882352941176 359.5294117647059 52.7058823529412V461.1764705882353C357.6470588235295 489.4117647058824 335.0588235294118 512 306.8235294117648 512zM28.2352941176471 461.1764705882353C28.2352941176471 474.3529411764706 39.5294117647059 485.6470588235294 52.7058823529412 485.6470588235294H306.8235294117648C320 485.6470588235294 331.2941176470589 474.3529411764706 331.2941176470589 461.1764705882353V429.1764705882353H30.1176470588236V461.1764705882353zM329.4117647058824 399.0588235294118V144.9411764705882H28.2352941176471V399.0588235294118H329.4117647058824zM306.8235294117648 28.2352941176471H52.7058823529412C39.5294117647059 28.2352941176471 28.2352941176471 39.5294117647059 28.2352941176471 52.7058823529412V120.4705882352942H329.4117647058824V52.7058823529412C329.4117647058824 37.6470588235294 318.1176470588236 28.2352941176471 306.8235294117648 28.2352941176471zM143.0588235294118 84.7058823529412H227.764705882353V56.4705882352941H143.0588235294118V84.7058823529412z" />
    <glyph glyph-name="pinterest"
      unicode="&#xE01F;"
      horiz-adv-x="512" d="M153.6 21.0823529411765C153.6 39.1529411764706 153.6 60.2352941176471 156.6117647058823 81.3176470588235C162.6352941176471 102.4 189.7411764705882 219.8588235294117 189.7411764705882 219.8588235294117S183.7176470588235 234.9176470588236 183.7176470588235 259.0117647058824C183.7176470588235 298.1647058823529 204.8 325.2705882352941 231.9058823529412 325.2705882352941C256 325.2705882352941 265.0352941176471 307.2000000000001 265.0352941176471 286.1176470588236C265.0352941176471 262.0235294117647 249.9764705882353 228.8941176470588 240.9411764705882 195.7647058823529C234.9176470588235 168.6588235294117 256 147.5764705882354 280.0941176470588 147.5764705882354C328.2823529411765 147.5764705882354 361.4117647058823 210.8235294117647 361.4117647058823 283.1058823529412C361.4117647058823 340.3294117647059 322.2588235294118 382.4941176470589 256 382.4941176470589C180.7058823529412 382.4941176470589 132.5176470588236 325.2705882352941 132.5176470588236 259.0117647058824C132.5176470588236 237.9294117647059 138.5411764705883 219.8588235294117 150.5882352941177 207.8117647058824C156.6117647058824 201.7882352941177 156.6117647058824 198.7764705882353 153.6 192.7529411764706C153.6 186.7294117647059 150.5882352941177 177.6941176470588 147.5764705882353 171.6705882352941C144.564705882353 165.6470588235295 141.5529411764706 162.6352941176471 135.5294117647059 165.6470588235295C99.3882352941176 180.7058823529412 84.3294117647059 219.8588235294118 84.3294117647059 262.0235294117648C84.3294117647059 334.3058823529413 144.5647058823529 421.6470588235295 268.0470588235294 421.6470588235295C364.4235294117647 421.6470588235295 430.6823529411764 349.3647058823531 430.6823529411764 274.0705882352942C430.6823529411764 174.6823529411765 373.4588235294117 99.3882352941178 292.1411764705882 99.3882352941178C265.0352941176471 99.3882352941178 237.9294117647059 114.4470588235295 228.8941176470588 132.5176470588236C228.8941176470588 132.5176470588236 213.8352941176471 72.2823529411766 210.8235294117647 63.2470588235295C204.8 42.164705882353 195.7647058823529 24.0941176470589 183.7176470588235 9.0352941176471C207.8117647058824 3.0117647058824 231.9058823529412 0 256 0C397.5529411764706 0 512 114.4470588235295 512 256C512 397.5529411764706 397.5529411764706 512 256 512C114.4470588235294 512 0 397.5529411764706 0 256C0 150.5882352941177 63.2470588235294 60.2352941176471 153.6 21.0823529411765z" />
    <glyph glyph-name="plus"
      unicode="&#xE020;"
      horiz-adv-x="512" d="M512 263.8048780487805L263.8048780487805 263.8048780487805L263.8048780487805 512L248.1951219512196 512L248.1951219512196 263.8048780487805L0 263.8048780487805L0 248.1951219512195L248.1951219512196 248.1951219512195L248.1951219512196 0L263.8048780487805 0L263.8048780487805 248.1951219512195L512 248.1951219512195z" />
    <glyph glyph-name="portefeuille"
      unicode="&#xE021;"
      horiz-adv-x="563.9420289855072" d="M546.6280193236715 403.1690821256039H494.6859903381642V494.6859903381642L469.951690821256 512L14.8405797101449 400.6956521739131L0 383.3816425120773V19.7874396135266V0H19.7874396135266H37.1014492753623H546.6280193236715L566.4154589371981 19.7874396135266V383.3816425120773L546.6280193236715 403.1690821256039zM455.1111111111111 403.1690821256039H173.1400966183575L455.1111111111111 472.4251207729469V403.1690821256039zM526.840579710145 37.1014492753624H37.1014492753623V366.0676328502416H526.840579710145V37.1014492753624zM415.536231884058 230.0289855072464C398.2222222222223 230.0289855072464 383.3816425120773 215.1884057971015 383.3816425120773 197.8743961352657S398.2222222222223 165.719806763285 415.536231884058 165.719806763285C432.8502415458937 165.719806763285 447.6908212560387 180.5603864734299 447.6908212560387 197.8743961352657S432.8502415458937 230.0289855072464 415.536231884058 230.0289855072464zM410.5893719806764 197.8743961352657C410.5893719806764 200.3478260869566 413.0628019323672 202.8212560386473 415.536231884058 202.8212560386473C418.0096618357489 202.8212560386473 420.4830917874396 200.3478260869566 420.4830917874396 197.8743961352657C420.4830917874396 192.9275362318841 410.5893719806764 192.9275362318841 410.5893719806764 197.8743961352657z" />
    <glyph glyph-name="print"
      unicode="&#xE022;"
      horiz-adv-x="548.5714285714286" d="M91.4285714285714 511.769478095238C85.3333333333333 511.769478095238 79.2380952380952 505.6742399999999 79.2380952380952 499.5790019047619V377.67424H48.7619047619048C21.9428571428571 377.67424 0 355.7313828571428 0 328.9123352380952V146.0551923809524C0 119.2361447619047 21.9428571428571 97.2932876190476 48.7619047619048 97.2932876190476H79.2380952380952V11.9599542857143C79.2380952380952 5.8647161904761 85.3333333333333 -0.230521904762 91.4285714285714 -0.230521904762H457.1428571428571C463.2380952380952 -0.230521904762 469.3333333333333 5.8647161904761 469.3333333333333 11.9599542857143V97.2932876190476H499.8095238095238C526.6285714285715 97.2932876190476 548.5714285714286 119.2361447619047 548.5714285714286 146.0551923809524V328.9123352380952C548.5714285714286 355.7313828571428 526.6285714285715 377.67424 499.8095238095238 377.67424H469.3333333333333V499.5790019047619C469.3333333333333 505.6742399999999 463.2380952380952 511.769478095238 457.1428571428571 511.769478095238H91.4285714285714zM103.6190476190476 487.3885257142857H444.9523809523809V377.67424H103.6190476190476V487.3885257142857zM48.7619047619048 353.2932876190476H90.2095238095238H457.7523809523809H499.8095238095238C513.8285714285714 353.2932876190476 524.1904761904761 342.9313828571428 524.1904761904761 328.9123352380952V146.0551923809524C524.1904761904761 132.0361447619047 513.8285714285714 121.67424 499.8095238095238 121.67424H469.3333333333333V207.0075733333333C469.3333333333333 213.1028114285714 463.2380952380952 219.1980495238095 457.1428571428571 219.1980495238095H91.4285714285714C85.3333333333333 219.1980495238095 79.2380952380952 213.1028114285714 79.2380952380952 207.0075733333333V121.67424H48.7619047619048C34.7428571428571 121.67424 24.3809523809524 132.0361447619047 24.3809523809524 146.0551923809524V328.9123352380952C24.3809523809524 342.9313828571425 34.7428571428571 353.2932876190476 48.7619047619048 353.2932876190476zM457.1428571428571 322.8170971428571C437.0285714285714 322.8170971428571 420.5714285714286 306.3599542857143 420.5714285714286 286.2456685714285S437.0285714285714 249.67424 457.1428571428571 249.67424S493.7142857142857 266.1313828571429 493.7142857142857 286.2456685714285C493.7142857142857 306.359954285714 477.2571428571428 322.8170971428571 457.1428571428571 322.8170971428571zM457.1428571428571 298.4361447619047C463.847619047619 298.4361447619047 469.3333333333333 292.9504304761905 469.3333333333333 286.2456685714285S463.847619047619 274.0551923809524 457.1428571428571 274.0551923809524S444.9523809523809 279.5409066666666 444.9523809523809 286.2456685714285S450.4380952380952 298.4361447619047 457.1428571428571 298.4361447619047zM103.6190476190476 194.8170971428571H444.9523809523809V24.1504304761904H103.6190476190476V194.8170971428571z" />
    <glyph glyph-name="pro"
      unicode="&#xE023;"
      horiz-adv-x="539.1649365628605" d="M539.1649365628605 329.522491349481L519.677047289504 361.4117647058823L246.8465974625144 270.4682814302191L372.6320645905422 489.5594002306805L335.4279123414072 512L216.1384083044983 305.3102652825836L187.20184544406 447.040369088812L154.1314878892734 441.7254901960785L184.8396770472895 284.641291810842L15.3540945790081 346.6482122260669L0 305.3102652825836L165.3517877739331 243.3033448673587L8.2675893886967 191.3356401384083L15.9446366782007 162.39907727797L160.0369088811996 208.4613610149942L56.6920415224914 27.7554786620531L90.9434832756632 0L202.5559400230681 193.6978085351788L237.9884659746252 12.401384083045L274.6020761245675 20.078431372549L233.8546712802768 217.9100346020761L483.6539792387543 124.6043829296425L498.4175317185698 171.2572087658593L285.8223760092273 248.0276816608997L539.1649365628605 329.522491349481" />
    <glyph glyph-name="social"
      unicode="&#xE024;"
      horiz-adv-x="412.18772563176896" d="M218.1083032490975 0L147.870036101083 109.0541516245488C60.9963898916967 134.9314079422383 0 214.4115523465704 0 306.8303249097473C0 419.5812274368231 92.4187725631769 512 207.0180505415162 512S414.0361010830325 419.5812274368231 414.0361010830325 304.9819494584838C414.0361010830325 205.1696750902527 343.797833935018 121.9927797833935 247.6823104693141 103.5090252707581V7.3935018050541L218.1083032490975 0zM207.0180505415162 482.4259927797834C109.0541516245487 482.4259927797834 31.4223826714801 402.9458483754513 31.4223826714801 306.8303249097474C31.4223826714801 227.3501805054152 85.0252707581227 157.1119133574008 162.6570397111913 136.7797833935019L171.898916967509 131.2346570397112L218.1083032490975 59.1480144404333V116.447653429603L231.0469314079422 131.2346570397113C317.9205776173285 142.3249097472926 384.4620938628159 218.1083032490976 384.4620938628159 306.8303249097474C382.6137184115524 402.9458483754513 303.1335740072202 482.4259927797834 207.0180505415162 482.4259927797834zM138.6281588447654 323.4657039711192C125.6895306859206 323.4657039711192 116.4476534296029 312.3754512635379 116.4476534296029 301.2851985559567S127.5379061371841 279.1046931407943 138.6281588447654 279.1046931407943C151.5667870036101 279.1046931407943 160.8086642599278 290.1949458483755 160.8086642599278 301.2851985559567S151.5667870036101 323.4657039711192 138.6281588447654 323.4657039711192zM207.0180505415162 323.4657039711192C194.0794223826715 323.4657039711192 184.8375451263538 312.3754512635379 184.8375451263538 301.2851985559567S195.927797833935 279.1046931407943 207.0180505415162 279.1046931407943C219.956678700361 279.1046931407943 229.1985559566787 290.1949458483755 229.1985559566787 301.2851985559567S219.956678700361 323.4657039711192 207.0180505415162 323.4657039711192zM275.4079422382672 323.4657039711192C262.4693140794224 323.4657039711192 253.2274368231047 312.3754512635379 253.2274368231047 301.2851985559567S264.317689530686 279.1046931407943 275.4079422382672 279.1046931407943C288.3465703971119 279.1046931407943 297.5884476534297 290.1949458483755 297.5884476534297 301.2851985559567S288.3465703971119 323.4657039711192 275.4079422382672 323.4657039711192z" />
    <glyph glyph-name="temp"
      unicode="&#xE025;"
      horiz-adv-x="234.40963855421688" d="M191.2289156626506 173.7510040160642L191.2289156626506 461.6224899598393C191.2289156626506 463.6787148594377 191.2289156626506 464.7068273092369 191.2289156626506 466.7630522088353C190.2008032128514 479.1004016064256 185.0602409638554 491.437751004016 174.7791164658635 500.6907630522088C164.4979919678715 509.9437751004015 152.1606425702812 515.0843373493975 137.7670682730924 514.0562248995983C110.0080321285141 513.0281124497991 88.4176706827309 488.3534136546184 89.4457831325301 460.5943775100401V172.722891566265C77.1084337349398 164.4979919678715 65.7991967871486 153.1887550200803 58.6024096385542 140.8514056224899C46.2650602409639 119.2610441767067 43.1807228915663 93.5582329317268 49.3493975903614 69.9116465863453S70.9397590361446 25.7028112449799 93.5582329317269 12.3373493975903C107.9518072289156 4.1124497991967 124.4016064257028 -1e-13 140.8514056224899 -1e-13C173.7510040160642 -1e-13 205.6224899598393 16.4497991967871 222.0722891566265 47.293172690763C246.7469879518073 90.4738955823293 233.3815261044177 145.9919678714859 191.2289156626506 173.7510040160642zM208.706827309237 54.4899598393574C187.1164658634538 16.4497991967871 138.7951807228916 4.1124497991967 101.7831325301205 25.7028112449799C83.2771084337349 35.9839357429719 70.9397590361446 53.4618473895582 64.7710843373494 72.995983935743C59.6305220883534 93.5582329317269 61.6867469879518 114.1204819277109 72.995983935743 132.6265060240963C80.1927710843374 144.9638554216867 89.4457831325301 154.2168674698795 101.7831325301205 161.4136546184738L105.8955823293173 163.4698795180723L105.8955823293173 460.5943775100401C105.8955823293173 469.8473895582329 108.9799196787149 479.1004016064256 115.1485943775101 486.29718875502C121.3172690763052 493.4939759036144 130.570281124498 497.6064257028112 139.8232931726908 497.6064257028112C140.85140562249 497.6064257028112 140.85140562249 497.6064257028112 141.8795180722892 497.6064257028112C151.1325301204819 497.6064257028112 159.3574297188755 494.5220883534136 165.5261044176707 488.3534136546184C172.7228915662651 482.1847389558233 176.8353413654619 472.9317269076305 176.8353413654619 463.6787148594377C176.8353413654619 462.6506024096385 176.8353413654619 461.6224899598393 176.8353413654619 459.5662650602409V163.4698795180723L180.9477911646587 161.4136546184738C216.9317269076306 140.8514056224899 230.2971887550201 92.5301204819277 208.706827309237 54.4899598393574zM0 458.5381526104417H53.4618473895582V443.1164658634538H0V458.5381526104417zM0 404.0481927710843H53.4618473895582V388.6265060240964H0V404.0481927710843zM0 350.5863453815261H53.4618473895582V335.1646586345381H0V350.5863453815261zM0 296.0963855421686H53.4618473895582V280.6746987951807H0V296.0963855421686zM0 242.6345381526104H53.4618473895582V227.2128514056224H0V242.6345381526104zM148.0481927710843 133.6546184738956V288.8995983935743H132.6265060240964V133.6546184738956C114.1204819277109 129.5421686746988 100.7550200803213 114.1204819277109 100.7550200803213 94.5863453815261C100.7550200803213 72.995983935743 118.2329317269076 54.4899598393574 140.85140562249 54.4899598393574C162.4417670682731 54.4899598393574 180.9477911646587 71.9678714859438 180.9477911646587 94.5863453815261C179.9196787148594 114.1204819277108 166.5542168674699 129.5421686746987 148.0481927710843 133.6546184738956zM139.8232931726908 69.9116465863453C126.4578313253012 69.9116465863453 115.14859437751 81.2208835341365 115.14859437751 94.586345381526S126.4578313253012 119.2610441767067 139.8232931726908 119.2610441767067S164.4979919678715 107.9518072289156 164.4979919678715 94.586345381526S154.2168674698795 69.9116465863453 139.8232931726908 69.9116465863453z" />
    <glyph glyph-name="ticket"
      unicode="&#xE026;"
      horiz-adv-x="668.9811320754717" d="M652.0754716981132 512H16.9056603773585L0 492.6792452830189V125.5849056603773L19.3207547169811 106.2641509433962H219.7735849056604V-2.4150943396227H263.245283018868V106.2641509433962H432.301886792453V111.0943396226414H434.7169811320755V214.9433962264151C434.7169811320755 253.5849056603774 461.2830188679246 284.9811320754717 497.5094339622642 294.6415094339623V0H540.9811320754718V108.6792452830189H652.0754716981132L671.3962264150944 128V492.6792452830189L652.0754716981132 512zM89.3584905660378 144.9056603773585H36.2264150943396V475.7735849056604H89.3584905660378V144.9056603773585zM632.7547169811321 144.9056603773585H538.5660377358491V318.7924528301887L516.8301886792453 340.5283018867925C446.7924528301888 340.5283018867925 391.245283018868 284.9811320754717 391.245283018868 214.9433962264151V144.9056603773585H125.5849056603774V475.7735849056604H632.7547169811322V144.9056603773585zM173.8867924528302 422.6415094339623H381.5849056603774V386.4150943396226H173.8867924528302V422.6415094339623zM173.8867924528302 357.4339622641509H381.5849056603774V321.2075471698113H173.8867924528302V357.4339622641509zM173.8867924528302 289.811320754717H311.5471698113208V253.5849056603774H173.8867924528302V289.811320754717z" />
    <glyph glyph-name="twitter-card-logo"
      unicode="&#xE027;"
      horiz-adv-x="608.8648648648649" d="M210.3351351351352 3.5424864864864C143.9135135135135 3.5424864864864 77.4918918918919 20.1478918918919 13.8378378378378 56.1262702702702C2.7675675675676 61.6614054054053 -2.7675675675676 75.4992432432431 0 86.5695135135135C2.7675675675676 97.6397837837837 16.6054054054054 108.710054054054 27.6756756756757 105.9424864864864C66.4216216216216 103.1749189189188 107.9351351351351 111.4776216216215 143.9135135135135 128.083027027027C-41.5135135135135 249.856 52.5837837837838 465.7262702702703 52.5837837837838 468.4938378378378C58.1189189189189 476.7965405405405 66.4216216216216 482.3316756756757 74.7243243243243 485.0992432432432C85.7945945945946 485.0992432432432 94.0972972972973 482.3316756756757 99.6324324324324 474.028972972973C141.145945945946 413.1424864864865 207.5675675675676 377.1641081081081 276.7567567567568 371.628972972973C276.7567567567568 410.3749189189189 293.3621621621622 449.1208648648649 323.8054054054054 476.7965405405405C351.4810810810811 501.7046486486486 387.4594594594595 512.774918918919 426.2054054054054 510.0073513513514C456.6486486486486 507.2397837837838 487.0918918918919 496.1695135135135 509.2324324324324 476.7965405405405C528.6054054054053 485.0992432432432 547.9783783783784 493.401945945946 564.5837837837838 507.2397837837838C572.8864864864865 512.774918918919 586.7243243243244 512.774918918919 595.0270270270271 507.2397837837838C603.3297297297298 501.7046486486486 608.8648648648649 487.8668108108108 606.0972972972972 476.7965405405405C597.7945945945945 440.8181621621622 581.1891891891892 407.6073513513514 556.2810810810811 382.6992432432433C556.2810810810811 379.9316756756757 556.2810810810811 374.3965405405405 556.2810810810811 371.628972972973C556.2810810810811 233.2505945945946 495.3945945945946 117.0127567567568 387.4594594594594 53.3587027027026C334.8756756756757 20.1478918918919 273.9891891891893 3.5424864864864 210.3351351351352 3.5424864864864zM135.6108108108108 67.1965405405405C213.1027027027027 47.8235675675676 293.3621621621623 58.8938378378378 359.7837837837838 100.4073513513513C448.345945945946 152.9911351351352 500.9297297297298 252.6235675675676 500.9297297297298 371.628972972973C500.9297297297298 377.1641081081082 500.9297297297298 382.6992432432433 498.1621621621622 388.2343783783784C495.3945945945946 396.5370810810811 498.1621621621622 407.6073513513514 506.4648648648649 413.1424864864865C509.2324324324325 415.9100540540541 512 418.6776216216216 517.5351351351352 424.2127567567568C514.7675675675675 424.2127567567568 512 421.4451891891892 509.2324324324324 421.4451891891892C498.1621621621622 418.6776216216216 487.0918918918919 421.4451891891892 481.5567567567567 429.7478918918919C467.7189189189189 446.3532972972974 445.5783783783783 457.4235675675675 423.4378378378379 457.4235675675675C401.2972972972973 460.1911351351351 379.1567567567568 451.8884324324324 362.5513513513513 438.0505945945946C343.1783783783784 418.6776216216216 332.1081081081082 393.7695135135135 332.1081081081082 368.8614054054055V343.9532972972973C332.1081081081082 330.1154594594595 321.0378378378379 316.2776216216216 304.4324324324325 316.2776216216216C224.172972972973 313.5100540540541 146.6810810810811 343.9532972972973 88.5621621621622 399.3046486486487C74.7243243243243 335.6505945945946 71.9567567567568 216.6451891891892 213.1027027027027 152.9911351351351C221.4054054054054 150.2235675675675 229.7081081081082 139.1532972972972 229.7081081081082 130.8505945945945C229.7081081081082 119.7803243243242 226.9405405405406 111.4776216216216 218.6378378378379 105.9424864864864C193.7297297297298 89.3370810810811 166.0540540540541 75.4992432432433 135.6108108108108 67.1965405405405z" />
    <glyph glyph-name="twitter"
      unicode="&#xE028;"
      horiz-adv-x="743" d="M659.035 284.375C700.78 287.819 729.0799999999999 306.796 739.9889999999999 332.544C724.9259999999999 323.295 678.1859999999999 313.212 652.3789999999999 322.816C651.108 328.877 649.7029999999999 334.642 648.3159999999999 339.844C628.6289999999999 412.061 561.2919999999999 470.247 490.7269999999999 463.227C496.4339999999999 465.5309999999999 502.2299999999999 467.6779999999999 508.0029999999999 469.602C515.7579999999999 472.385 561.3419999999999 479.8 554.1659999999999 495.8869999999999C548.1039999999999 510.033 492.437 485.193 481.9569999999999 481.9469999999999C495.7979999999999 487.15 518.6809999999999 496.102 521.1329999999999 512.006C499.9259999999999 509.0989999999999 479.1159999999999 499.074 463.0369999999999 484.4979999999999C468.8419999999999 490.7499999999999 473.2439999999999 498.364 474.1859999999999 506.564C417.6189999999999 470.443 384.5859999999999 397.616 357.863 326.9599999999999C336.863 347.299 318.266 363.3209999999999 301.576 372.214C254.753 397.327 198.771 423.522 110.881 456.1489999999999C108.189 427.073 125.267 388.408 174.46 362.701C163.799 364.13 144.318 360.942 128.718 357.209C135.076 323.896 155.796 296.454 211.96 283.184C186.302 281.491 173.039 275.653 161.025 263.067C172.702 239.903 201.217 212.635 252.508 218.234C195.495 193.65 229.27 148.123 275.672 154.919C196.502 73.14 71.682 79.143 0.001 147.537C187.145 -107.464 593.938 -3.272 654.552 242.348C699.971 241.96 726.678 258.08 743.227 275.851C717.0649999999999 271.4079999999999 679.145 276 659.036 284.3739999999999z" />
    <glyph glyph-name="viadeo"
      unicode="&#xE029;"
      horiz-adv-x="440.08988764044943" d="M201.0287141073658 512C243.5355805243446 440.4094881398252 266.8664169787766 376.1697877652934 271.980024968789 360.828963795256C271.980024968789 361.1485642946317 271.980024968789 361.4681647940075 271.980024968789 361.4681647940075C261.4332084893883 471.7303370786517 201.0287141073658 512 201.0287141073658 512zM413.8826466916355 500.4943820224719C392.1498127340825 454.4719101123595 352.19975031211 445.8426966292135 352.19975031211 445.8426966292135C312.2496878901374 435.6154806491885 298.1872659176031 420.2746566791511 298.1872659176031 420.2746566791511C258.2372034956305 380.0049937578027 289.558052434457 331.1061173533084 289.558052434457 331.1061173533084C376.1697877652935 350.9213483146068 407.8102372034957 421.87265917603 407.8102372034957 421.87265917603C403.9750312109864 373.932584269663 301.0636704119851 317.6828963795256 301.0636704119851 317.6828963795256C334.9413233458178 284.1248439450686 367.5405742821474 288.2796504369539 388.9538077403247 301.063670411985C417.3982521847691 318.0024968789014 431.1410736579276 355.0761548064919 431.1410736579276 355.0761548064919C458.9463171036205 437.5330836454432 413.8826466916355 500.4943820224719 413.8826466916355 500.4943820224719zM304.8988764044945 239.7003745318352C312.2496878901374 222.1223470661673 315.765293383271 203.2659176029962 315.765293383271 182.8114856429463C315.765293383271 157.5630461922596 309.6928838951311 133.5930087390761 297.5480649188515 111.860174781523C285.4032459425719 89.8077403245943 269.103620474407 72.8689138576779 248.3295880149813 61.043695380774C227.5555555555556 49.2184769038702 205.183520599251 43.1460674157303 180.2546816479401 43.1460674157303C180.2546816479401 43.1460674157303 179.9350811485643 43.1460674157303 179.9350811485643 43.1460674157303C180.2546816479401 43.1460674157303 180.8938826466917 43.1460674157303 181.2134831460674 43.1460674157303C181.2134831460674 43.1460674157303 350.601747815231 150.2122347066168 272.9388264669164 357.6329588014982C272.9388264669164 357.6329588014982 272.6192259675406 358.9113607990013 271.6604244694133 361.1485642946318C272.6192259675406 347.4057428214732 288.2796504369539 96.5193508114857 155.9650436953808 45.063670411985C140.6242197253433 47.6204744069913 125.9225967540574 53.0536828963795 112.1797752808989 61.043695380774C91.4057428214732 72.8689138576779 75.1061173533084 89.8077403245943 62.9612983770287 111.8601747815231C50.8164794007491 133.912609238452 44.7440699126092 157.5630461922597 44.7440699126092 182.8114856429463C44.7440699126092 222.1223470661673 58.167290886392 255.6803995006242 84.6941323345818 283.4856429463172C111.2209737827715 311.2908863920101 143.1810237203496 325.0337078651686 180.2546816479401 325.0337078651686C197.832709113608 325.0337078651686 214.4519350811486 321.8377028714108 229.4731585518103 315.4456928838952C231.0711610486892 331.4257178526842 236.5043695380774 346.4469413233459 242.8963795255931 358.5917602996255C223.7203495630462 365.6229712858927 202.6267166042447 369.1385767790263 180.2546816479401 369.1385767790263C126.8813982521848 369.1385767790263 82.4569288389513 349.3233458177279 47.3008739076155 310.0124843945069C15.980024968789 274.5368289637953 0 232.3495630461923 0 183.7702871410736C0 134.5518102372034 16.9388264669164 91.7253433208489 50.4968789013733 54.9712858926342C84.0549313358302 18.2172284644195 127.5205992509364 0 180.5742821473159 0C233.3083645443197 0 276.7740324594257 18.2172284644195 310.3320848938827 54.9712858926342C343.8901373283396 91.7253433208489 360.828963795256 134.5518102372035 360.828963795256 183.7702871410736C360.828963795256 209.9775280898877 356.0349563046193 234.2671660424469 347.0861423220974 256.9588014981273C331.74531835206 247.3707865168539 317.0436953807741 242.2571785268414 304.8988764044945 239.7003745318352z" />
    <glyph glyph-name="youtube"
      unicode="&#xE02A;"
      horiz-adv-x="426.6666666666667" d="M360.6755555555556 137.6711111111111H332.8L332.8 154.1688888888889C332.8 161.5644444444444 338.4888888888889 167.2533333333333 345.8844444444445 167.2533333333333H347.5911111111111C354.9866666666666 167.2533333333333 360.6755555555556 161.5644444444444 360.6755555555556 154.1688888888889L360.6755555555556 137.6711111111111zM255.4311111111111 172.3733333333333C248.0355555555556 172.3733333333333 242.3466666666667 167.8222222222222 242.3466666666667 161.5644444444444V81.92C242.3466666666667 76.2311111111112 248.0355555555556 71.1111111111111 255.4311111111111 71.1111111111111C262.8266666666667 71.1111111111111 268.5155555555555 75.6622222222222 268.5155555555555 81.92V161.5644444444445C268.5155555555556 167.8222222222222 262.8266666666667 172.3733333333333 255.4311111111111 172.3733333333333zM426.6666666666667 216.7466666666667V65.9911111111111C426.6666666666667 29.5822222222222 395.3777777777778 0 356.6933333333334 0H69.9733333333333C31.2888888888889 0 0 29.5822222222222 0 65.9911111111111V216.7466666666667C0 253.1555555555556 31.2888888888889 282.7377777777778 69.9733333333333 282.7377777777778H357.2622222222222C395.3777777777778 282.7377777777778 426.6666666666667 253.1555555555556 426.6666666666667 216.7466666666667zM88.7466666666667 49.4933333333333L88.7466666666667 208.7822222222222L124.5866666666667 208.7822222222222V232.1066666666667L29.5822222222222 232.1066666666667V208.7822222222222L59.1644444444444 208.7822222222222V49.4933333333333H88.7466666666667zM195.6977777777778 184.8888888888889H166.1155555555556V100.1244444444444C166.1155555555556 87.6088888888888 166.6844444444445 81.92 166.1155555555556 79.6444444444445C163.84 72.8177777777777 153.0311111111111 65.9911111111111 148.48 79.0755555555556C147.9111111111111 81.3511111111112 148.48 88.1777777777778 148.48 99.5555555555555L148.48 184.8888888888889H118.8977777777778L118.8977777777778 100.6933333333333C118.8977777777778 87.6088888888889 118.3288888888889 77.9377777777778 118.8977777777778 73.9555555555555C119.4666666666667 65.9911111111111 119.4666666666667 57.4577777777777 126.2933333333333 52.3377777777778C139.3777777777778 42.6666666666666 164.9777777777778 54.0444444444444 171.8044444444445 67.6977777777778L171.8044444444445 50.0622222222223L195.6977777777778 50.0622222222223V184.8888888888889zM290.7022222222223 87.6088888888889L290.7022222222223 158.1511111111111C290.7022222222223 184.8888888888889 270.7911111111112 201.3866666666667 242.9155555555556 179.2000000000001L242.9155555555556 231.5377777777778L213.3333333333334 231.5377777777778L213.3333333333334 50.0622222222223L237.7955555555556 50.6311111111111L240.0711111111111 62.0088888888889C270.7911111111112 33.5644444444445 290.7022222222223 53.4755555555556 290.7022222222223 87.6088888888889zM383.4311111111112 96.7111111111111L361.2444444444446 96.7111111111111C361.2444444444446 95.5733333333333 361.2444444444446 95.0044444444445 361.2444444444446 93.8666666666667V81.3511111111111C361.2444444444446 74.5244444444444 355.5555555555556 69.4044444444444 349.2977777777778 69.4044444444444H344.7466666666668C337.9200000000001 69.4044444444444 332.8000000000001 75.0933333333333 332.8000000000001 81.3511111111111V82.4888888888889V96.7111111111111V113.7777777777778H384V133.12C384 147.3422222222222 383.4311111111112 160.9955555555556 382.2933333333334 168.96C378.8800000000001 194.56 343.04 198.5422222222222 324.8355555555556 185.4577777777778C319.1466666666667 181.4755555555556 315.1644444444445 175.7866666666666 312.32 168.96C310.0444444444445 161.5644444444445 308.3377777777778 151.8933333333333 308.3377777777778 138.8088888888889V96.7111111111111C308.3377777777779 26.7377777777778 393.6711111111112 36.4088888888889 383.4311111111112 96.7111111111111zM269.0844444444445 325.9733333333333C270.7911111111111 321.9911111111111 273.0666666666667 319.1466666666667 276.48 316.8711111111111C279.8933333333333 314.5955555555555 283.8755555555556 313.4577777777778 288.4266666666667 313.4577777777778C292.9777777777778 313.4577777777778 296.3911111111111 314.5955555555555 299.8044444444444 316.8711111111111C303.2177777777778 319.1466666666667 306.0622222222222 322.56 308.3377777777778 327.68L307.7688888888889 316.3022222222222H340.7644444444444V456.8177777777778H314.5955555555555V347.0222222222223C314.5955555555555 341.3333333333333 309.4755555555555 336.2133333333334 303.7866666666667 336.2133333333334C298.0977777777778 336.2133333333334 292.9777777777778 341.3333333333333 292.9777777777778 347.0222222222223V456.8177777777778H265.6711111111111V361.8133333333334C265.6711111111111 349.8666666666667 265.6711111111111 341.9022222222223 266.24 337.3511111111111C266.8088888888889 333.368888888889 267.9466666666667 329.3866666666667 269.0844444444445 325.9733333333333zM168.96 405.0488888888889C168.96 418.7022222222222 170.0977777777778 428.9422222222222 172.3733333333333 436.9066666666667C174.6488888888889 444.3022222222222 178.6311111111111 450.56 184.32 455.1111111111111C190.0088888888889 459.6622222222222 197.4044444444444 461.9377777777778 206.5066666666667 461.9377777777778C213.9022222222222 461.9377777777778 220.7288888888889 460.2311111111111 226.4177777777778 457.3866666666667C232.1066666666667 454.5422222222222 236.0888888888889 450.56 238.9333333333334 446.0088888888889C241.7777777777778 441.4577777777778 244.0533333333334 436.3377777777778 245.1911111111112 431.2177777777778C246.3288888888889 426.0977777777778 246.8977777777778 418.7022222222222 246.8977777777778 408.4622222222222V372.6222222222222C246.8977777777778 359.5377777777777 246.3288888888889 349.8666666666667 245.1911111111112 343.6088888888889C244.0533333333334 337.3511111111111 241.7777777777778 331.6622222222223 238.9333333333334 326.5422222222222C235.52 321.4222222222222 231.5377777777778 317.44 226.4177777777778 314.5955555555555C221.2977777777778 312.32 215.04 310.6133333333333 208.2133333333333 310.6133333333333C200.8177777777778 310.6133333333333 194.56 311.7511111111111 188.8711111111111 314.0266666666667C183.7511111111111 316.3022222222222 179.7688888888889 319.7155555555555 176.9244444444444 323.6977777777778C174.08 328.2488888888889 171.8044444444444 333.3688888888889 170.6666666666666 339.6266666666667C169.5288888888889 345.8844444444445 168.96 354.9866666666667 168.96 367.5022222222223V405.0488888888889zM195.1288888888889 349.2977777777778C195.1288888888889 341.3333333333333 200.8177777777778 335.0755555555555 208.2133333333333 335.0755555555555C215.6088888888889 335.0755555555555 221.2977777777777 341.3333333333333 221.2977777777777 349.2977777777778V424.3911111111111C221.2977777777777 432.3555555555556 215.6088888888889 438.6133333333334 208.2133333333333 438.6133333333334C200.8177777777778 438.6133333333334 195.1288888888889 432.3555555555556 195.1288888888889 424.3911111111111V349.2977777777778zM103.5377777777778 311.7511111111111H134.8266666666667L134.8266666666667 419.84L171.8044444444445 512H137.6711111111111L118.3288888888889 443.1644444444445L97.8488888888889 512H64.2844444444445L103.5377777777778 419.2711111111111L103.5377777777778 311.7511111111111z" />
  </font>
</defs>
</svg>
